Cum transformi filme vechi in Full HD si 4K

AlexH

Merg pe strada catre Mine...
Membru personal
Administrative
Freelancer
SEO Expert
In general filmele vechi .avi sunt facute la rezolutii mici gen 600/300 si daca vrei sa-l vezi pe un eran mare de 42-60'' nu se vede chiar bine. Pentru a le face 1080 sau 720 in functie de cerintele tale si device pe care te uiti vom folosi comanda de mai jos.

Cod:
ffmpeg -i input.wmv -s hd1080 -c:v libx264 -crf 23 -c:a aac -strict -2 output.mp4
Explicatii:
  1. shimbati 1080 cu valoare care vreti voi, puteti chiar sa faceti in 4K.
  2. cfr este calitatea la video. Daca vreti sa mentineti aceiasi calitate dar si doar sa faceti upscale recomand sa folositi o valoare intre 25-28.
  3. cu cat valoarea cfr este mai mica cu atat calitatea si marimea in GB creste cat si timpul de conversie. Insa depinde mult de cpu care-l aveti, daca este unul slab atunci va puteti astepta la cateva ore bune sa dureze, cam 10-24 ore, insa cu un cpu bun poate dura cat dureaza filmul sau dublu.
  4. la valoarea de cfr 28 dureaza pe un i5 aproximativ cat dureaza filmul, deci daca aceasta are 2 ore, atunci 2 ore va dura conversia.
Se intelege ca avem nevoie de ffmpeg pentru a functiona.
La un film vechi din 97`, durata o ora si 41 minute, rezolutie 624 x 352, upscale 1080 cu cfr de 15 din 2Gb l-a facut la 8.5GB si a durat 6 ore conversia.

Sper sa va ajute.
Apoi dupa ce ati facut upscale puteti sa urcati pe opeload sa-l fac 1-2Gb.
 

AlexH

Merg pe strada catre Mine...
Membru personal
Administrative
Freelancer
SEO Expert
Comanda pentru 4k cu cfr 28 un film de 2 ore il face in 15 minute.
Cod:
ffmpeg -i input.wmv -s 4k3840 -c:v libx264 -crf 28 -c:a aac -strict -2 output.mp4
Cam asta va fi finalul:
Video
Cod:
 Stream #0:0: Video: h264 (libx264) (avc1 / 0x31637661), yuv420p, 4x3840 [SAR 18720:11 DAR 39:22], q=-1--1, 23.98 fps, 11988 tbn, 23.98 tbc
audio
Cod:
Stream #0:1: Audio: aac (LC) (mp4a / 0x6134706D), 48000 Hz, 5.1(side), fltp, 394 kb/s
Cu metoda asta puteti face filme normale de pe youtube in 4K si apoi le urcati pe contul vostru unde vor avea status de 4k.
Nu am testat cum e treaba la dmca inca dar o voi face in cursul zilei de astazi.

La un video normal de 5-15 minute conversia ar trebuie sa fie relativ rapida. Un mic truc care poate pacali sistemul, dar cum am spus nu am testat inca.

Daca prima comanda nu va ofera calitatea dorita puteti folosi comanda de mai jos, insa timpul de conversie creste la 8-10 ore pentru un film de 2 ore.

Cod:
ffmpeg -i input.wmv -s 3840:2160 -c:v libx264 -crf 28 -c:a aac -strict -2 output.mp4
Sau daca vrei una si mai simpla pentru 4k fara sa umbli la alte setari atunci foloseste pe cea de mai jos.
Cod:
 ffmpeg -i YourFile -vf scale=3840:2160 OutputFile4k.mp4
Pentru alte rezolutii vedeti tabelul de mai jos.
3154
 
Ultima editare:

AlexH

Merg pe strada catre Mine...
Membru personal
Administrative
Freelancer
SEO Expert
deci daca eu am un clip in 420p si eu vreau 1080 p..o sa il faca el la calitate hd? sau se schimba doar rezolutia la videoclip?
Da il poti face. Daca vrei doar sa schimbi rezolutia atunci ruleaza comanda de mai jos:
Cod:
ffmpeg -i YourFile -vf scale=1920:1080 OutputFile4k.mp4
Sa-l faci Full HD atunci ruleaza asta:
Cod:
ffmpeg -i input.wmv -s hd1080 -c:v libx264 -crf 22 -c:a aac -strict -2 output.mp4
 

Ade

Active Member
Registered
Full Member
Da il poti face. Daca vrei doar sa schimbi rezolutia atunci ruleaza comanda de mai jos:
Cod:
ffmpeg -i YourFile -vf scale=1920:1080 OutputFile4k.mp4
Sa-l faci Full HD atunci ruleaza asta:
Cod:
ffmpeg -i input.wmv -s hd1080 -c:v libx264 -crf 22 -c:a aac -strict -2 output.mp4
in 10 minute o sa testez...abea astept sa vad daca chiar merge
 

AlexH

Merg pe strada catre Mine...
Membru personal
Administrative
Freelancer
SEO Expert
in 10 minute o sa testez...abea astept sa vad daca chiar merge
Merge, eu am facut 4K video si l-am urcat pe youtube sa vad daca trece de dmca dar nu trece. :D
 

AlexH

Merg pe strada catre Mine...
Membru personal
Administrative
Freelancer
SEO Expert
deci incercai sa transform acest clip in hd dar ....nu am vazut absolut nici o schimbare
Uneori schimbarea pe un laptop nu o vezi, dar daca te uiti pe un TV de 55` se vede garantat, cel putin in testul meu.
Daca vrei o calitate mai buna, atunci schimba -crf intr-o valoarea mai mica pana iti place ce iese.
Pentru a intelege:
Video vechi daca il urcai pe youtube iti arata 480 la calitate, dupa conversie iti va arata 1080.
 

Reclama

Stiri Monezi Virtuale

Reducere pentru Vacanta

Loading...
Sus